Results 1 to 5 of 5

Thread: Can't Mount Cue from Sega Cue Maker with DAEMON Tools

  1. #1

    Default Can't Mount Cue from Sega Cue Maker with DAEMON Tools

    After scouring a variety of tutorials, forums, and videos, I got SSF and the Saturn BIOS successfully installed, all the proper functions working, a Guardian Heroes ISO downloaded, all the mp3 files switched to 16-bit wav, Sega CUE Maker properly registered, and even created a cue file there.

    Unfortunately, my trial version of DAEMON Tools Pro won't mount the .cue file on the virtual drive. It will mount the .ISO, but not the .cue file. (And with the .ISO mounted, I can only load the opening cinematic of the game before it crashes)

    For reference, here is my .cue file;


    FILE "Guardian Heroes.iso" BINARY
    TRACK 01 MODE1/2048
    INDEX 01 00:00:00
    POSTGAP 00:02:00
    FILE "Guardian Heroes 02.wav" WAVE
    TRACK 02 AUDIO
    PREGAP 00:02:00
    INDEX 01 00:00:00
    FILE "Guardian Heroes 03.wav" WAVE
    TRACK 03 AUDIO
    INDEX 01 00:00:00
    FILE "Guardian Heroes 04.wav" WAVE
    TRACK 04 AUDIO
    INDEX 01 00:00:00
    FILE "Guardian Heroes 05.wav" WAVE
    TRACK 05 AUDIO
    INDEX 01 00:00:00
    FILE "Guardian Heroes 06.wav" WAVE
    TRACK 06 AUDIO
    INDEX 01 00:00:00
    FILE "Guardian Heroes 07.wav" WAVE
    TRACK 07 AUDIO
    INDEX 01 00:00:00
    FILE "Guardian Heroes 08.wav" WAVE
    TRACK 08 AUDIO
    INDEX 01 00:00:00
    FILE "Guardian Heroes 09.wav" WAVE
    TRACK 09 AUDIO
    INDEX 01 00:00:00
    FILE "Guardian Heroes 10.wav" WAVE
    TRACK 10 AUDIO
    INDEX 01 00:00:00
    FILE "Guardian Heroes 11.wav" WAVE
    TRACK 11 AUDIO
    INDEX 01 00:00:00
    FILE "Guardian Heroes 12.wav" WAVE
    TRACK 12 AUDIO
    INDEX 01 00:00:00
    FILE "Guardian Heroes 13.wav" WAVE
    TRACK 13 AUDIO
    INDEX 01 00:00:00
    FILE "Guardian Heroes 14.wav" WAVE
    TRACK 14 AUDIO
    INDEX 01 00:00:00
    FILE "Guardian Heroes 15.wav" WAVE
    TRACK 15 AUDIO
    INDEX 01 00:00:00
    FILE "Guardian Heroes 16.wav" WAVE
    TRACK 16 AUDIO
    INDEX 01 00:00:00
    FILE "Guardian Heroes 17.wav" WAVE
    TRACK 17 AUDIO
    INDEX 01 00:00:00
    FILE "Guardian Heroes 18.wav" WAVE
    TRACK 18 AUDIO
    INDEX 01 00:00:00
    FILE "Guardian Heroes 19.wav" WAVE
    TRACK 19 AUDIO
    INDEX 01 00:00:00
    FILE "Guardian Heroes 20.wav" WAVE
    TRACK 20 AUDIO
    INDEX 01 00:00:00
    FILE "Guardian Heroes 21.wav" WAVE
    TRACK 21 AUDIO
    INDEX 01 00:00:00
    FILE "Guardian Heroes 22.wav" WAVE
    TRACK 22 AUDIO
    INDEX 01 00:00:00
    FILE "Guardian Heroes 23.wav" WAVE
    TRACK 23 AUDIO
    INDEX 01 00:00:00
    FILE "Guardian Heroes 24.wav" WAVE
    TRACK 24 AUDIO
    INDEX 01 00:00:00

  2. #2
    Megadeth Fan VintageTorrie's Avatar
    Join Date
    Feb 2012
    Location
    Scotland
    Age
    22
    Posts
    293
    Blog Entries
    2

    Default Re: Can't Mount Cue from Sega Cue Maker with DAEMON Tools

    Doesn't the .cue file just show what order mp3s have to be played in? You're not meant to mount it, you mount the ISO



    Holy Wars...The Punishment Due - Megadeth
    War Pigs - Black Sabbath
    Angel of Death - Slayer
    From Out of Nowhere - Faith No More
    Believer - Ozzy Osbourne
    Visit my site - http://emulatorfever.forumotion.co.uk/

  3. #3
    Controller Man ulaoulao's Avatar
    Join Date
    Dec 2005
    Location
    FL
    Posts
    3,359
    Blog Entries
    2

    Default Re: Can't Mount Cue from Sega Cue Maker with DAEMON Tools

    No you can mount what ever you want, you can burn what ever you want, and some emulators will load a few types directly. From what I recal you need to mount the image in order to use any saturn image. They are just painful emulators. Your best bet is DAEMON but you can try others. Winmount, isobuster, winiso, Alcohol 120%, etc...
    Original, the only way to play.

    Forums
    main page - Working controllers

  4. #4

    Default Re: Can't Mount Cue from Sega Cue Maker with DAEMON Tools

    Quote Originally Posted by VintageTorrie View Post
    Doesn't the .cue file just show what order mp3s have to be played in? You're not meant to mount it, you mount the ISO
    No, as noted, .cue is a standard DT-supported format that should indeed be mounted, but for whatever reason, doesn't.

    I actually downloaded Alcohol 120% and couldn't mount .cue files there, either. However, this time I got the error message "sampling rate must be 44100". Searching online, I found that this meant the .wav files must be 44.1 KhZ. I don't believe the last .mp3 to .wav converter I used had that as one of the options; can anyone recommend a good free converter to do the conversion through again?

  5. #5
    Controller Man ulaoulao's Avatar
    Join Date
    Dec 2005
    Location
    FL
    Posts
    3,359
    Blog Entries
    2

    Default Re: Can't Mount Cue from Sega Cue Maker with DAEMON Tools

    Is this a sega CD rip? All of those are created a special way and can not be mounted.

    http://www.gp32x.com/board/index.php...for-picodrive/

    Normally this is an iso not a bin cue, but I guess that could work? I would definitely try to convert the mp3s to wav and then the cue may work. You can try cnet they always have free bee's or try this.
    http://www.zamzar.com/convert/mp3-to-wav/
    Last edited by ulaoulao; September 27th, 2012 at 03:06.
    Original, the only way to play.

    Forums
    main page - Working controllers

Thread Information

Users Browsing this Thread

There are currently 1 users browsing this thread. (0 members and 1 guests)

Posting Permissions

  • You may not post new threads
  • You may not post replies
  • You may not post attachments
  • You may not edit your posts
  •